#TITLE:SIN;
#SUBTITLE:;
#ARTIST:ESTi;
#TITLETRANSLIT:;
#SUBTITLETRANSLIT:;
#ARTISTTRANSLIT:;
#CREDIT:;
#BANNER:SIN.png;
#BACKGROUND:SIN-bg.png;
#LYRICSPATH:;
#CDTITLE:NVLM-cdtitle.png;
#MUSIC:SIN.mp3;
#OFFSET:-0.104;
#SAMPLESTART:22.784;
#SAMPLELENGTH:12.000;
#SELECTABLE:YES;
#BPMS:0.000=190.000;
#STOPS:;
#BGCHANGES:;
// cache tags:
#FIRSTBEAT:16.000;
#LASTBEAT:360.000;
#SONGFILENAME:Songs/Music V.I.P ^_^/SIN [NVLM]/SIN.sm;
#HASMUSIC:1;
#HASBANNER:1;
#MUSICLENGTH:115.565;
// end cache tags

//---------------dance-single - ----------------
#NOTES:
     dance-single:
     :
     Hard:
     10:
     0.836,0.973,0.381,0.112,0.255,619.000,44.000,13.000,0.000,0.000:  // measure 1
0000
0000
0000
0000
,  // measure 2
0000
0000
0000
0000
,  // measure 3
0000
0000
0000
0000
,  // measure 4
0000
0000
0000
0000
,  // measure 5
1000
0100
0010
0001
0100
1000
1000
0100
,  // measure 6
0010
1000
0001
0010
0100
1000
0010
0100
,  // measure 7
0001
1000
0001
0010
0100
0010
0001
1000
,  // measure 8
0100
1000
0010
0100
0010
0100
0001
0010
,  // measure 9
0001
0001
0100
0100
0010
0010
1000
1000
,  // measure 10
0100
0100
0010
0010
0001
0001
0100
0100
,  // measure 11
0010
0010
1000
1000
0001
0001
0100
0100
,  // measure 12
0010
0010
1000
1000
0100
0100
0010
0010
,  // measure 13
0001
1000
0010
0100
0001
1000
0010
0100
,  // measure 14
0001
1000
0010
0100
0001
1000
0010
0100
,  // measure 15
2000
0000
0000
0000
,  // measure 16
0000
0000
0000
3000
,  // measure 17
0100
0000
0001
1000
0000
0001
0010
0000
0100
1000
0000
0100
1000
0000
0010
0000
,  // measure 18
0000
0110
0000
0000
0000
0000
0000
0000
,  // measure 19
1001
0000
0001
0100
0000
0010
1000
0100
,  // measure 20
1000
1000
0001
0010
0000
0100
1000
0100
,  // measure 21
0010
0010
0001
0100
0000
0010
1000
0100
,  // measure 22
0010
0010
0001
0100
0000
0010
1000
0100
,  // measure 23
1000
1000
0001
0100
0000
0010
0001
0010
,  // measure 24
0100
0100
1000
0001
0000
0100
0010
1000
,  // measure 25
0100
0100
0010
0001
0000
0100
0010
1000
,  // measure 26
0001
0001
0010
0100
0000
1000
0100
0010
,  // measure 27
0001
1000
0001
0000
0010
0000
0100
0000
1000
0001
1000
0000
0100
0000
0010
0000
,  // measure 28
0001
0100
0001
0000
0010
0000
0100
0000
1000
0010
1000
0000
0100
0000
0010
0000
,  // measure 29
0001
0001
0100
0010
1000
0100
1000
0000
,  // measure 30
0001
0100
1000
0100
0010
1000
0100
0000
,  // measure 31
1001
0000
0000
1010
0000
0000
0110
0000
,  // measure 32
0000
0101
0000
0000
1001
0000
1100
0000
,  // measure 33
0100
0000
0010
0000
0001
0000
1000
0000
0010
0000
0100
0000
0010
1000
0000
0000
,  // measure 34
1000
0000
0100
0000
0010
0000
0001
0000
0100
0000
0010
0000
1000
0010
0000
0000
,  // measure 35
1000
0000
0001
0000
0010
0000
0100
0000
1000
0000
0010
0000
0100
0001
0000
0000
,  // measure 36
0001
0010
0100
1000
0100
0010
0001
0001
,  // measure 37
2000
0000
3002
0000
,  // measure 38
0203
0000
0320
0000
,  // measure 39
2030
0000
3000
0000
,  // measure 40
0100
0000
0001
0010
0000
0100
1000
0100
,  // measure 41
0010
0010
0001
1000
0000
0001
0100
0001
,  // measure 42
0010
0000
0100
1000
0000
0001
0100
0001
,  // measure 43
0000
0010
0100
1000
0000
0100
0010
0001
,  // measure 44
0100
0000
0010
0010
0000
1000
0100
1000
,  // measure 45
0000
0001
0001
0100
0010
1000
0100
1000
,  // measure 46
0001
0000
1000
0100
0000
0010
0001
1000
,  // measure 47
1001
0000
0000
0000
,  // measure 48
1000
0000
1000
0000
0100
0000
0010
0000
0001
0100
0001
0100
0001
0100
0000
0000
,  // measure 49
0010
0000
1000
0000
0100
0000
0010
0000
0001
1000
0001
1000
0001
1000
0000
0000
,  // measure 50
0100
0000
0010
0000
0001
0000
0100
0000
0010
1000
0010
1000
0010
1000
0000
0000
,  // measure 51
1000
0100
1000
0000
0001
0000
0100
0000
0010
0000
0010
0000
0010
0000
0010
0000
,  // measure 52
0100
0000
1000
0000
0100
0000
0001
0000
1000
0010
1000
0010
1000
0010
0000
0000
,  // measure 53
0110
0000
0000
0000
1100
0000
0000
0000
0001
1000
0001
0000
1000
0100
1000
0000
,  // measure 54
0010
0000
0100
0000
0001
0010
0001
0000
0010
0000
0100
0000
1000
0000
0001
0000
,  // measure 55
0100
0000
0100
0000
0010
0000
0010
0000
1000
0100
1000
0100
0010
0000
0001
0000
,  // measure 56
1001
0000
0000
0000
,  // measure 57
0000
0000
0200
0000
0000
0000
0000
0000
0000
0320
0000
0000
0000
0000
0000
0000
,  // measure 58
2030
0000
0000
0000
0000
3000
0001
0010
0001
0000
0010
0000
0100
0000
1000
0000
,  // measure 59
0010
0000
0001
0000
0010
0000
1000
0000
0100
0000
0010
0000
0001
0000
1000
0100
,  // measure 60
2000
0000
0000
0000
0000
3000
0100
0010
0001
0000
0010
0000
1000
0000
0010
0000
,  // measure 61
0001
0000
0100
0000
0010
0000
1000
0000
0100
0000
0010
0000
0001
0000
1000
0010
,  // measure 62
2000
0000
0000
0000
0000
3000
0001
0010
0100
0000
1000
0000
0010
0000
0100
0000
,  // measure 63
0001
0000
1000
0000
0100
0000
0010
0000
0001
0000
0100
0000
0010
0000
1000
0100
,  // measure 64
1000
0001
0010
0100
1000
0010
0100
0001
,  // measure 65
0001
0010
0110
0000
1100
0000
0101
0000
,  // measure 66
1001
0100
1000
0100
0001
0100
1000
0100
,  // measure 67
0001
0100
1000
0100
0001
0100
1000
0100
,  // measure 68
0010
0001
0010
0100
0010
1000
0010
0100
,  // measure 69
0010
0001
0010
0100
0010
1000
0110
0000
,  // measure 70
1000
0100
1000
0010
1000
0001
1000
0010
,  // measure 71
1000
0100
1000
0010
1000
0001
1000
0010
,  // measure 72
0100
0000
0100
0000
0001
0000
0001
0000
1000
0100
1000
0100
1000
0000
0000
0000
,  // measure 73
0010
0000
0010
0000
0100
0000
0100
0000
0001
1000
0001
1000
0001
0000
0000
0000
,  // measure 74
1100
1100
1000
0010
0100
0001
1000
0100
,  // measure 75
0011
0011
0001
0100
0010
1000
0100
0010
,  // measure 76
1001
1001
1000
0100
0010
1000
0010
0001
,  // measure 77
0110
0110
0100
1000
0010
0100
1001
0000
,  // measure 78
0110
0110
0010
1000
0100
0001
0100
1000
,  // measure 79
0011
0011
0001
0100
0010
1000
0100
0001
,  // measure 80
1010
1010
1000
0100
0010
1000
0010
0100
,  // measure 81
1001
0000
1001
0000
0001
0000
0010
0000
0100
1000
0100
1000
0010
1000
0000
0000
,  // measure 82
1001
0000
0001
0000
0100
0000
0010
0000
1000
0100
1000
0001
0100
0000
0010
0000
,  // measure 83
1001
0000
0001
0000
0010
0000
0100
0000
1000
0010
1000
0100
1000
0000
0001
0000
,  // measure 84
0101
0000
1000
0000
0100
0000
0010
0000
0001
0100
0001
0010
0100
0000
1000
0000
,  // measure 85
1010
0000
0001
0000
0010
0000
0100
0000
1000
0001
1000
0100
0010
0000
0001
0000
,  // measure 86
0100
0000
0010
0000
1000
0000
0100
0000
0010
0001
0010
0100
1000
0000
0001
0000
,  // measure 87
0100
0000
0010
0000
1000
0000
0100
0000
0010
0001
0010
0100
1000
0000
0001
0000
,  // measure 88
1100
0000
1100
0000
1000
0000
0001
0000
0010
0100
0010
0000
0100
1000
0100
0000
,  // measure 89
1000
0000
0001
0100
0001
0100
0010
0000
1100
0000
1001
0000
0101
0000
2200
0000
,  // measure 90
0000
0000
0000
0000
,  // measure 91
3300
0000
0000
0000
;

//---------------dance-double - ----------------
#NOTES:
     dance-double:
     :
     Hard:
     10:
     0.855,0.935,0.346,0.138,0.251,636.000,40.000,16.000,0.000,0.000:  // measure 1
00000000
00000000
00000000
00000000
,  // measure 2
00000000
00000000
00000000
00000000
,  // measure 3
00000000
00000000
00000000
00000000
,  // measure 4
00000000
00000000
00000000
00000000
,  // measure 5
10000000
00100000
01000000
00001000
00010000
00000010
00000100
00000001
,  // measure 6
00000010
00000100
00001000
00010000
00100000
01000000
10000000
00100000
,  // measure 7
00010000
00001000
00000010
00000001
00000010
00000100
00001000
00010000
,  // measure 8
00100000
01000000
10000000
00100000
00010000
00001000
00000100
00000010
,  // measure 9
00000001
00000001
00001000
00001000
00000100
00000100
00010000
00010000
,  // measure 10
00001000
00001000
01000000
01000000
00100000
00100000
10000000
10000000
,  // measure 11
01000000
01000000
00010000
00010000
00001000
00001000
00000100
00000100
,  // measure 12
00000010
00000010
00000001
00000001
00001000
00001000
00000100
00000100
,  // measure 13
00100000
00100000
00001000
00001000
00010000
00010000
00100000
00100000
,  // measure 14
01000000
01000000
10000000
10000000
00010000
00010000
00100000
00001000
,  // measure 15
02000200
00000000
00000000
00000000
,  // measure 16
00000000
00000000
00000000
03000300
,  // measure 17
00100000
00000000
00010000
00001000
00010000
00001000
00010000
00000000
00000010
00010000
00000010
00010000
00000010
00000000
00000100
00000000
,  // measure 18
00000000
00022000
00033000
00000000
00000000
00000000
00000000
00000000
,  // measure 19
00110000
01000000
10000000
00010000
00000000
01000000
00001000
00010000
,  // measure 20
00000100
00000010
00000001
00001000
00000000
00000100
00010000
00001000
,  // measure 21
00100000
01000000
10000000
00010000
00000000
01000000
00010000
00001000
,  // measure 22
00000100
00000010
00000001
00001000
00000000
00000100
00001000
00010000
,  // measure 23
00100000
01000000
10000000
00010000
00000000
00001000
00000100
00000010
,  // measure 24
00001000
00010000
01000000
00100000
00000000
10000000
01000000
00010000
,  // measure 25
00001000
00000010
00000001
00000100
00000000
00001000
00010000
01000000
,  // measure 26
00100000
00010000
00001000
00000100
00000000
00000010
00001000
00010000
,  // measure 27
00100000
00000000
01000000
00000000
10000000
00010000
10000000
00000000
01000000
00000000
00100000
00000000
00010000
10000000
00010000
00000000
,  // measure 28
01000000
00000000
00001000
00000000
00010000
00000100
00010000
00000000
00000010
00000000
00001000
00000000
00000001
00000100
00000001
00000000
,  // measure 29
00000010
00000100
00001000
00010000
01000000
00100000
10000000
00000000
,  // measure 30
01000000
00100000
00010000
00001000
00000010
00000001
00000100
00000000
,  // measure 31
00010000
00001000
00100000
01000000
10000000
00100000
01000000
00000000
,  // measure 32
00001000
00010000
00000100
00000010
00001000
00010000
00100000
00000000
,  // measure 33
01000000
00000000
10000000
00000000
00010000
00000000
00100000
00000000
00001000
00000000
00010000
00000000
00000100
00001000
00000000
00000000
,  // measure 34
00001000
00000000
00000010
00000000
00000100
00000000
00001000
00000000
00010000
00000000
00100000
00000000
01000000
10000000
00000000
00000000
,  // measure 35
10000000
00000000
00100000
00000000
00010000
00000000
00001000
00000000
00000100
00000000
00000010
00000000
00000001
00001000
00000000
00000000
,  // measure 36
00001000
00000000
00000100
00000000
00010000
00000000
00100000
00000000
01000000
00000000
10000000
00000000
00100000
00010000
00100000
00000000
,  // measure 37
02000000
00000000
03020000
00000000
,  // measure 38
00032000
00000000
00003020
00000000
,  // measure 39
00000032
00000000
00000003
00000000
,  // measure 40
00011000
00000000
00010000
00100000
00000000
01000000
10000000
00100000
,  // measure 41
00010000
00010000
00001000
00000010
00000000
00000001
00000100
00001000
,  // measure 42
00100000
01000000
10000000
00010000
00000000
00001000
00000100
00000010
,  // measure 43
00001000
00010000
01000000
10000000
00000000
01000000
00100000
00010000
,  // measure 44
00001000
00000010
00000001
00000001
00000000
00000100
00001000
00010000
,  // measure 45
00100000
01000000
01000000
10000000
00100000
00010000
00001000
01000000
,  // measure 46
00100000
00100000
00010000
00001000
00000000
00000010
00000001
00001000
,  // measure 47
00001100
00000000
00000000
00000000
,  // measure 48
10010000
00000000
10000000
00000000
01000000
00000000
00100000
00000000
00010000
00001000
00010000
00001000
00010000
00001000
00010000
00000000
,  // measure 49
00100000
00000000
01000000
00000000
10000000
00000000
00010000
00000000
01000000
00001000
01000000
00001000
01000000
00001000
01000000
00000000
,  // measure 50
00001000
00000000
00010000
00000000
00000100
00000000
00000010
00000000
00000001
00001000
00000001
00001000
00000001
00001000
00000001
00000000
,  // measure 51
00010000
00000100
00010000
00000000
00001000
00000000
01000000
00000000
00100000
00000000
00100000
00000000
00100000
00000000
00100000
00000000
,  // measure 52
01000000
00000000
00001000
00000000
00010000
00000000
00000100
00000000
00000010
00000001
00000010
00000001
00000010
00000001
00000010
00000000
,  // measure 53
00001100
00000000
00000000
00000000
00011000
00000000
00000000
00000000
00010000
10000000
00010000
00000000
10000000
01000000
10000000
00000000
,  // measure 54
00100000
00000000
01000000
00000000
00010000
00100000
00010000
00000000
00100000
00000000
00001000
00000000
00010000
00000000
00000100
00000000
,  // measure 55
00000010
00000001
00000010
00000000
00000100
00000000
00001000
00000000
00010000
01000000
00010000
01000000
00010000
00000000
00001000
00000000
,  // measure 56
00001100
00000000
00000000
00000000
,  // measure 57
00000000
00000000
00002000
00000000
00000000
00000000
00000000
00000000
00000000
00203000
00000000
00000000
00000000
00000000
00000000
00000000
,  // measure 58
02300000
00000000
00000000
00000000
00000000
03000000
10000000
00010000
10000000
00000000
00100000
00000000
00010000
00000000
00001000
00000000
,  // measure 59
00000100
00000000
00000010
00000000
00000001
00000000
00000100
00000000
00001000
00000000
00010000
00000000
00100000
00000000
01000000
10000000
,  // measure 60
02000000
00000000
00000000
00000000
00000000
03000000
10000000
00010000
10000000
00000000
01000000
00000000
00100000
00000000
00010000
00000000
,  // measure 61
00001000
00000000
00000100
00000000
00000010
00000000
00000001
00000000
00000100
00000000
00001000
00000000
00010000
00000000
00100000
01000000
,  // measure 62
00200000
00000000
00000000
00000000
00000000
00300000
01000000
10000000
00010000
00000000
10000000
00000000
01000000
00000000
00100000
00000000
,  // measure 63
00010000
00000000
00001000
00000000
00000100
00000000
00000010
00000000
00000001
00000000
00000100
00000000
00000010
00000000
00010000
00001000
,  // measure 64
00010000
00001000
00100000
01000000
10000000
00100000
01000000
00010000
,  // measure 65
00001000
00000100
00000110
00000000
00000011
00000000
00011000
00000000
,  // measure 66
00110000
01000000
10000000
01000000
00010000
01000000
10000000
01000000
,  // measure 67
00010000
01000000
10000000
01000000
00010000
01000000
10000000
01000000
,  // measure 68
00100000
00010000
00100000
01000000
00100000
10000000
00100000
01000000
,  // measure 69
00100000
00010000
00100000
01000000
00100000
10000000
01100000
00000000
,  // measure 70
00001000
00000100
00001000
00000010
00001000
00000001
00001000
00000010
,  // measure 71
00001000
00000100
00001000
00000010
00001000
00000001
00001000
00000010
,  // measure 72
00010000
00000000
00010000
00000000
00000100
00000000
00000100
00000000
00100000
00001000
00100000
00001000
00100000
00000000
00000000
00000000
,  // measure 73
00100000
00000000
00100000
00000000
01000000
00000000
01000000
00000000
00001000
00010000
00001000
00010000
00001000
00000000
00000000
00000000
,  // measure 74
11000000
11000000
10000000
00100000
01000000
00010000
10000000
01000000
,  // measure 75
00110000
00110000
00010000
00001000
00000100
00000010
00000001
00000100
,  // measure 76
00011000
00011000
00010000
00100000
01000000
10000000
00100000
00010000
,  // measure 77
00001100
00001100
00000100
00000010
00000001
00000100
00011000
00000000
,  // measure 78
01100000
00000000
01100000
00000000
00100000
00000000
10000000
00000000
00010000
00000000
00100000
00000000
00001000
00010000
00000000
00000000
,  // measure 79
00010100
00000000
00010100
00000000
00000100
00000000
00000010
00000000
00000001
00000000
00001000
00000000
00000100
00010000
00000000
00000000
,  // measure 80
00011000
00000000
00011000
00000000
00100000
00000000
01000000
00000000
10000000
00000000
00010000
00000000
01000000
00001000
00000000
00000000
,  // measure 81
00011000
00000000
00011000
00000000
00010000
00000000
00000100
00000000
01000000
00001000
01000000
00010000
01000000
00001000
01000000
00000000
,  // measure 82
00110000
00000000
00010000
00000000
00001000
00000000
00000100
00000000
00000010
00000001
00000010
00000000
00000100
00000000
00001000
00000000
,  // measure 83
00010000
00000000
00100000
00000000
01000000
00000000
10000000
00000000
00010000
01000000
00001000
00000000
00010000
00000000
00000100
00000000
,  // measure 84
00001100
00000000
00000010
00000000
00000001
00000000
00001000
00000000
00010000
00000100
00010000
00000000
00001000
00000000
00100000
00000000
,  // measure 85
01000000
00000000
10000000
00000000
00100000
00000000
00010000
00000000
00001000
00000100
00001000
00000000
00010000
00000000
01000000
00000000
,  // measure 86
01100000
00000000
10000000
00000000
01000000
00000000
00010000
00000000
00001000
00000010
00001000
00000000
00000100
00000000
00000010
00000000
,  // measure 87
00000001
00000000
00000100
00000000
00001000
00000000
00010000
00000000
00100000
01000000
00100000
00000000
01000000
00000000
10000000
00000000
,  // measure 88
10010000
00000000
10010000
00000000
00001000
00000000
00010000
00000000
00000010
00001000
00000010
00000000
00010000
00000100
00010000
00000000
,  // measure 89
00001000
00000000
00100000
00010000
00100000
01000000
00100000
00000000
11000000
00000000
10010000
00000000
01010000
00000000
02002000
00000000
,  // measure 90
00000000
00000000
00000000
00000000
,  // measure 91
03003000
00000000
00000000
00000000
;

//---------------dance-single - ----------------
#NOTES:
     dance-single:
     :
     Challenge:
     12:
     1.000,1.000,0.459,0.467,0.502,724.000,53.000,54.000,0.000,0.000:  // measure 1
0000
0000
0000
0000
,  // measure 2
0000
0000
0000
0000
,  // measure 3
0000
0000
0000
0000
,  // measure 4
0000
0000
0000
0000
,  // measure 5
2000
3200
0320
0032
0203
2300
3200
0320
,  // measure 6
2030
3002
0023
0230
2300
3020
0230
0302
,  // measure 7
2003
3200
0302
0203
0320
0032
0203
0320
,  // measure 8
2030
3002
0023
2030
3020
0230
2300
3200
,  // measure 9
0301
1000
0001
0000
0100
0000
0100
0000
0010
0001
0010
0000
0001
0000
0001
0000
,  // measure 10
1000
0100
1000
0000
0010
0000
0010
0000
0100
0001
0100
0000
0001
0000
0001
0000
,  // measure 11
0010
0100
0010
0000
1000
0000
1000
0000
0100
0001
0100
0000
0010
0000
0010
0000
,  // measure 12
0001
1000
0001
0000
0100
0000
0100
0000
0010
1000
0010
0000
0001
0000
0001
0000
,  // measure 13
0100
0010
0100
0000
1000
0000
1000
0000
0001
0010
0001
0000
0100
0000
0100
0000
,  // measure 14
1000
0001
1000
0000
0010
0000
0010
0000
0001
0100
0001
0000
0100
0000
0100
0000
,  // measure 15
2000
0010
0010
0010
0010
0010
0010
3010
,  // measure 16
0220
0000
0000
0330
,  // measure 17
0100
0000
0001
1000
0001
0010
0100
0000
1000
0100
1000
0001
1000
0100
0010
0000
,  // measure 18
0001
0220
0000
0000
0330
0000
0000
0000
,  // measure 19
1001
0000
1000
0000
0100
0000
0010
0001
0000
0000
0001
0000
0010
0000
0100
0000
,  // measure 20
1000
0000
0010
0000
0001
0000
0100
0001
0000
0000
0010
0000
1000
0000
0100
0000
,  // measure 21
0010
0000
0010
0000
0001
0000
0100
0010
0000
0000
0010
0000
1000
0000
0100
0000
,  // measure 22
0001
0000
0001
0000
0010
0000
0100
1000
0000
0000
1000
0000
0010
0000
0100
0000
,  // measure 23
0001
0000
0010
0000
0010
0000
0100
1000
0000
0000
1000
0000
0001
0000
0010
0000
,  // measure 24
0100
0100
1000
1001
0000
0100
0010
1000
,  // measure 25
0100
0010
0010
1001
0000
0100
0010
1000
,  // measure 26
0001
0001
0010
1100
0000
1000
0100
0010
,  // measure 27
0001
1000
0001
1000
0100
0000
0010
0000
0001
0100
0001
1000
0100
0000
0010
0000
,  // measure 28
0001
1000
0001
0010
0100
0000
1000
0000
0010
0100
0010
0100
0101
0000
0000
0000
,  // measure 29
0100
0000
0100
0000
0010
0000
1000
0000
0100
0000
0001
0000
0100
0000
0000
0100
,  // measure 30
0010
0000
0010
0000
0001
0000
0100
0000
1000
0000
0100
0000
0010
0000
0000
0010
,  // measure 31
1000
0000
1000
0000
0001
0000
0100
0000
0010
0000
0001
0000
0010
0000
0000
0010
,  // measure 32
0100
0000
0100
0000
0001
0000
0100
0000
1100
0000
0010
0000
0100
0000
0000
0100
,  // measure 33
0001
0001
1000
0100
0001
0010
0110
0000
,  // measure 34
1000
1000
0010
0100
1000
0100
0011
0000
,  // measure 35
0010
0000
0010
0000
0100
0000
1000
0000
0001
0000
0100
0000
0010
0000
0000
0010
,  // measure 36
0100
0100
0010
0001
0100
0010
1000
0100
,  // measure 37
2001
0000
3100
0010
0002
0000
0103
0010
,  // measure 38
2000
0000
3100
0110
0001
0001
0010
0100
,  // measure 39
1000
0001
1000
0001
1000
0001
1000
0001
1000
0000
0000
0000
0000
0000
0000
0000
,  // measure 40
0110
0100
0001
0010
0000
0100
1000
1000
,  // measure 41
0001
0100
0010
1000
0000
0100
0001
0100
,  // measure 42
1000
0010
0100
0101
0000
1000
0100
0001
,  // measure 43
0100
0010
0001
0100
0000
0010
1000
0100
,  // measure 44
1000
0001
0010
0110
0000
1000
0100
0010
,  // measure 45
0001
0100
0010
1000
0000
0001
0100
0010
,  // measure 46
0001
0000
0010
0000
0100
0000
1000
0001
1000
0000
0100
0000
0010
0000
0001
0000
,  // measure 47
1001
0000
0000
0000
0000
0101
0000
0110
,  // measure 48
1001
0000
1000
0000
0100
0000
0010
0000
0001
0100
0001
1000
0100
0010
0100
0000
,  // measure 49
1000
0000
1000
0000
0001
0000
0100
0000
0010
1000
0010
1000
0100
1000
0100
0000
,  // measure 50
1000
0000
1000
0000
0001
0000
0100
0000
0010
1000
0010
1000
0010
0100
0001
0000
,  // measure 51
1000
0100
1000
0000
0001
0000
0100
0000
0010
0001
0010
0001
0010
0001
0010
0000
,  // measure 52
0100
0000
1000
0000
0010
0000
0100
0000
0001
1000
0001
1000
0100
1000
0100
0000
,  // measure 53
0110
0000
1000
0000
1100
0000
0000
0000
0001
1000
0001
1000
0100
0010
0100
0000
,  // measure 54
1000
0000
0010
0000
0001
0100
0001
1000
0001
0000
0010
0000
0100
0000
1000
0000
,  // measure 55
0100
0000
0100
0000
0010
0000
0010
0001
1000
0100
1000
0100
0010
0000
0001
0000
,  // measure 56
1001
0000
0000
0000
,  // measure 57
0000
0000
2200
0000
0000
0000
0000
3300
0000
0022
0000
0000
0000
0033
0000
0000
,  // measure 58
2002
0000
0000
0000
3003
0000
0010
0100
1000
0000
0001
0000
0100
0000
0010
0000
,  // measure 59
0001
0000
0010
0000
0100
0000
1000
0000
0001
0000
0100
0000
0010
0000
1000
0100
,  // measure 60
0220
0000
0000
0000
0330
0000
0001
0010
0100
0000
1000
0000
0100
0000
0010
0000
,  // measure 61
0001
0000
0100
0000
0010
0000
1000
0000
0100
0000
0010
0000
0001
0000
0100
0010
,  // measure 62
2020
0000
0000
0000
3030
0000
0001
0010
0100
0000
1000
0000
0010
0000
0001
0000
,  // measure 63
0010
0000
0100
0000
0001
0000
0100
0000
1000
0000
0010
0000
0100
0000
0001
1000
,  // measure 64
0100
0000
0010
0001
1000
0000
0010
0000
0001
0000
0100
0000
0010
0000
1000
0000
,  // measure 65
1100
0011
0110
1100
,  // measure 66
0010
0001
0100
1000
0010
0001
0100
1000
,  // measure 67
0010
0001
0100
1000
0010
0001
0100
1000
,  // measure 68
0010
0001
0010
0100
0010
1000
0010
0100
,  // measure 69
0010
0001
0010
0100
0010
1000
0010
0100
,  // measure 70
1000
0001
0100
0001
0010
0001
0100
0001
,  // measure 71
1000
0001
0100
0001
0010
0001
0100
0001
,  // measure 72
0010
0000
0010
0000
0100
0000
0100
0000
1000
0001
1000
0001
1000
0000
0100
0000
,  // measure 73
0010
0000
0010
0000
0001
0000
0001
0000
0100
0010
0100
0010
0100
0000
0010
0000
,  // measure 74
1001
0000
1001
0000
0001
0000
0100
0000
0010
0000
1000
0000
0100
0010
0001
0000
,  // measure 75
1001
0000
1001
0000
0100
0000
0010
0000
0001
0000
0100
0000
0010
1000
0010
0000
,  // measure 76
1001
0000
1001
0000
1000
0000
0100
0000
0010
0000
0001
0000
0100
0010
1000
0000
,  // measure 77
1001
0000
0101
0000
0010
0000
0100
0000
0001
0000
1000
0000
0100
0010
0001
0000
,  // measure 78
1001
0000
1100
0000
0100
0000
0010
0000
0001
0000
0100
0000
0010
1000
0010
0000
,  // measure 79
1001
0000
0101
0000
0001
0000
0010
0000
0100
0000
1000
0000
0010
0100
0001
0000
,  // measure 80
0101
0000
1100
0000
1000
0000
0010
0000
0100
0000
0001
0000
0010
0100
1000
0000
,  // measure 81
1001
0000
0101
0000
0001
0000
0010
0000
0100
1000
0100
1000
0010
0100
0000
0000
,  // measure 82
1000
0100
1000
0000
0001
0100
0001
0000
0010
0100
1000
0000
0001
0100
0001
0000
,  // measure 83
1000
0100
0010
0000
0001
0010
0100
0000
1000
0001
1000
0000
0100
0010
0001
0000
,  // measure 84
0100
0010
1000
0000
0001
0010
0100
0000
1000
0001
0010
0000
0100
1000
0001
0000
,  // measure 85
0100
0010
1000
0000
0010
0100
0001
0000
0010
0100
1000
0000
0100
0010
0001
0000
,  // measure 86
1000
0010
0100
0000
0001
1000
0100
0000
0010
0001
0010
0000
0100
1000
0100
0000
,  // measure 87
1000
0001
0010
0000
0100
0010
0001
0000
1000
0100
0010
0000
0001
0100
0010
0000
,  // measure 88
1000
0000
1200
0000
0310
0000
0210
0000
0301
0100
0001
0010
0001
0010
0100
1000
,  // measure 89
0100
0000
0010
0001
0010
0100
1000
0000
0110
0000
1001
0000
0101
0000
2200
0000
,  // measure 90
0000
0000
0000
0000
,  // measure 91
3300
0000
0000
0000
;

//---------------dance-single - ----------------
#NOTES:
     dance-single:
     :
     Easy:
     6:
     0.441,0.545,0.216,0.130,0.004,317.000,25.000,15.000,0.000,0.000:  // measure 1
0000
0000
0000
0000
,  // measure 2
0000
0000
0000
0000
,  // measure 3
0000
0000
0000
0000
,  // measure 4
0000
0000
0000
0000
,  // measure 5
1000
1000
1000
1000
,  // measure 6
1000
1000
1000
1000
,  // measure 7
1000
1000
1000
1000
,  // measure 8
1000
1000
1000
1000
,  // measure 9
0100
0010
0001
0010
,  // measure 10
0100
1000
0100
0010
,  // measure 11
0001
0010
0100
1000
,  // measure 12
0100
0010
0001
0010
,  // measure 13
0100
1000
0100
0010
,  // measure 14
0001
0010
0100
1000
,  // measure 15
2002
0000
0000
0000
,  // measure 16
0000
0000
0000
3003
,  // measure 17
0001
1000
0001
0000
1000
0001
1000
0000
,  // measure 18
0000
0110
0000
0000
0000
0000
0000
0000
,  // measure 19
1100
0000
0000
1000
0000
0000
0010
0000
,  // measure 20
0100
0001
1000
0100
,  // measure 21
0010
0000
0000
0001
0000
0000
1000
0000
,  // measure 22
0001
0010
0100
1000
,  // measure 23
0010
0000
0000
0010
0000
0000
0100
0000
,  // measure 24
0001
0010
0100
1000
,  // measure 25
0010
0000
0000
0100
0000
0000
0100
0000
,  // measure 26
0001
0010
0100
1000
,  // measure 27
0001
1000
0001
0000
0100
0010
0100
0000
,  // measure 28
0001
1000
0001
0000
0100
0010
0100
0000
,  // measure 29
0010
1000
0100
0010
,  // measure 30
0001
0100
0010
1000
,  // measure 31
0001
0000
0000
0010
0000
0000
0100
0000
,  // measure 32
0000
0100
0000
0000
1000
0000
1000
0000
,  // measure 33
0110
0010
0001
0100
,  // measure 34
1000
0100
0010
1000
,  // measure 35
0001
0010
0100
1000
,  // measure 36
0010
0100
0001
0100
,  // measure 37
2000
0000
3002
0000
,  // measure 38
0203
0000
0320
0000
,  // measure 39
2030
0000
3000
0000
,  // measure 40
0010
0000
0000
0100
0000
0000
0001
0000
,  // measure 41
1000
0000
0000
1000
0000
0000
0100
0000
,  // measure 42
0010
0000
0000
0001
0000
0000
0001
0000
,  // measure 43
0100
0000
0000
0010
0000
0000
1000
0000
,  // measure 44
0001
0000
0000
0010
0000
0000
0010
0000
,  // measure 45
0100
0000
0000
1000
0000
0000
1000
0000
,  // measure 46
0010
0000
0000
0100
0000
0000
0001
0000
,  // measure 47
1001
0000
0000
0000
,  // measure 48
0100
0100
0100
0000
0010
0000
1000
0000
,  // measure 49
0001
0001
0001
0000
0010
0000
0100
0000
,  // measure 50
1000
1000
1000
0000
0010
0000
0100
0000
,  // measure 51
1001
0110
1001
0110
,  // measure 52
0010
0010
0010
0000
0001
0000
0100
0000
,  // measure 53
1000
1000
1000
0000
0010
0000
0100
0000
,  // measure 54
0001
0001
0001
0000
0010
0000
0100
0000
,  // measure 55
1000
1000
1000
0000
0010
0000
0100
0000
,  // measure 56
1001
0000
0000
0000
,  // measure 57
0000
0000
0200
0000
0000
0000
0000
0000
0000
0320
0000
0000
0000
0000
0000
0000
,  // measure 58
2030
0000
0000
3001
0001
0000
0100
0000
,  // measure 59
0010
1000
0100
0010
,  // measure 60
0002
0000
0000
0013
0010
0000
0100
0000
,  // measure 61
1000
0010
0100
0001
,  // measure 62
2000
0000
0000
3100
0010
0000
0001
0000
,  // measure 63
0001
0100
0010
1000
,  // measure 64
0100
0001
0100
1000
,  // measure 65
0010
0100
0002
0003
,  // measure 66
1000
0000
0000
1000
0000
0000
0010
0000
,  // measure 67
0100
0000
0000
0001
0000
0000
0010
0000
,  // measure 68
0100
0000
0000
1000
0000
0000
0010
0000
,  // measure 69
0100
0000
0000
0001
0000
0000
1000
0000
,  // measure 70
0100
0000
0000
0010
0000
0000
0001
0000
,  // measure 71
0010
0000
0000
0100
0000
0000
1000
0000
,  // measure 72
0100
0100
0010
0010
,  // measure 73
0001
0001
1000
1000
,  // measure 74
0110
0000
0001
0000
0010
0100
0010
0000
,  // measure 75
1100
0000
1000
0000
0001
0100
0001
0000
,  // measure 76
0110
0000
1000
0000
0001
0100
0001
0000
,  // measure 77
0110
0000
1000
0000
0001
0100
0001
0000
,  // measure 78
1100
0000
0010
0000
0001
1000
0001
0000
,  // measure 79
0110
0000
1000
0000
0001
0010
0100
0000
,  // measure 80
1100
0000
1000
0000
0010
0100
0010
0000
,  // measure 81
1001
0000
0100
0000
0001
0010
0001
0000
,  // measure 82
1100
1000
0010
0100
,  // measure 83
0001
0010
0100
1100
,  // measure 84
1001
0001
0100
0010
,  // measure 85
0001
0100
0010
1100
,  // measure 86
1001
0100
0010
0001
,  // measure 87
0100
0010
1000
1001
,  // measure 88
0100
0100
0100
0000
0010
0010
0010
0000
,  // measure 89
1000
0000
0000
0100
0000
0000
0000
0220
,  // measure 90
0000
0000
0000
0000
,  // measure 91
0330
0000
0000
0000
;

//---------------dance-double - ----------------
#NOTES:
     dance-double:
     :
     Challenge:
     11:
     0.975,1.000,0.467,0.467,0.368,681.000,54.000,54.000,0.000,0.000:  // measure 1
00000000
00000000
00000000
00000000
,  // measure 2
00000000
00000000
00000000
00000000
,  // measure 3
00000000
00000000
00000000
00000000
,  // measure 4
00000000
00000000
00000000
00000000
,  // measure 5
20000000
30200000
02300000
03002000
00023000
00030020
00000230
00000302
,  // measure 6
00000023
00000230
00002300
00023000
00230000
02300000
23000000
30200000
,  // measure 7
00320000
00032000
00003020
00000032
00000023
00000230
00002300
00023000
,  // measure 8
00230000
02300000
23000000
30200000
00320000
00032000
00003200
00000320
,  // measure 9
00000031
00000100
00000001
00000000
00001000
00000000
00001000
00000000
00000100
00010000
00000100
00000000
00010000
00000000
00010000
00000000
,  // measure 10
00001000
00100000
00001000
00000000
01000000
00000000
01000000
00000000
00100000
10000000
00100000
00000000
10000000
00000000
10000000
00000000
,  // measure 11
01000000
00010000
01000000
00000000
00010000
00000000
00010000
00000000
00001000
00000100
00001000
00000000
00000100
00000000
00000100
00000000
,  // measure 12
00000010
00000001
00000010
00000000
00000001
00000000
00000001
00000000
00001000
00000100
00001000
00000000
00000100
00000000
00000100
00000000
,  // measure 13
00100000
00001000
00100000
00000000
00001000
00000000
00001000
00000000
00010000
00100000
00010000
00000000
00100000
00000000
00100000
00000000
,  // measure 14
01000000
10000000
01000000
00000000
10000000
00000000
10000000
00000000
00010000
01000000
00010000
00000000
00100000
00000000
00001000
00000000
,  // measure 15
02000200
00000000
00000000
00000000
,  // measure 16
00000000
00000000
00000000
03000300
,  // measure 17
00100000
00000000
00010000
00001000
00010000
00001000
00010000
00000000
00000010
00010000
00000010
00010000
00000010
00000000
00000100
00000000
,  // measure 18
00010000
00022000
00033000
00000000
00000000
00000000
00000000
00000000
,  // measure 19
00110000
01000000
10000000
00010000
00000000
01001000
00001000
00010000
,  // measure 20
00000100
00000010
00000001
00001001
00000000
00000100
00010000
00001000
,  // measure 21
00100000
01000000
10000000
00010000
00000000
01010000
00010000
00001000
,  // measure 22
00000100
00000010
00000001
00001000
00000000
00001100
00001000
00010000
,  // measure 23
00100000
01000000
10000000
10010000
00000000
00001000
00000100
00000010
,  // measure 24
00001000
00010000
01000000
00100000
00000000
11000000
01000000
00010000
,  // measure 25
00001000
00000010
00000001
00000101
00000000
00001000
00010000
01000000
,  // measure 26
00100000
00010000
00001000
00000100
00000000
00001010
00001000
00010000
,  // measure 27
00100000
00000000
01000000
00000000
10000000
00010000
10000000
00000000
01000000
00000000
00100000
00000000
00010000
10000000
00010000
00000000
,  // measure 28
01000000
00000000
00001000
00000000
00010000
00000100
00010000
00000000
00000010
00000000
00001000
00000000
00000001
00000100
00000001
00000000
,  // measure 29
00000011
00000000
00000100
00000000
00001000
00000000
00010000
00000000
01000000
00000000
00100000
00000000
10000000
01000000
00000000
00000000
,  // measure 30
01000000
00000000
00100000
00000000
00010000
00000000
00001000
00000000
00000010
00000000
00000001
00000000
00000100
00001000
00000000
00000000
,  // measure 31
00010000
00000000
00001000
00000000
00100000
00000000
01000000
00000000
10000000
00000000
00100000
00000000
01000000
00001000
00000000
00000000
,  // measure 32
00001000
00000000
00010000
00000000
00000100
00000000
00000010
00000000
00001000
00000000
00010000
00000000
00100000
01000000
00000000
00000000
,  // measure 33
01000000
00000000
10000000
00000000
00010000
00000000
00100000
00000000
00001000
00000000
00010000
00000000
00000100
00001000
00000100
00000000
,  // measure 34
00001000
00000000
00000010
00000000
00000100
00000000
00001000
00000000
00010000
00000000
00100000
00000000
01000000
10000000
01000000
00000000
,  // measure 35
10000000
00000000
00100000
00000000
00010000
00000000
00001000
00000000
00000100
00000000
00000010
00000000
00000001
00001000
00000001
00000000
,  // measure 36
00001000
00000000
00000100
00000000
00010000
00000000
00100000
00000000
01000000
00000000
10000000
00000000
00100000
00010000
00100000
00000000
,  // measure 37
02000000
03200000
00320000
00032000
,  // measure 38
00003200
00000320
00000032
00002003
,  // measure 39
00003100
00010000
00000100
00010000
00000100
00010000
00000100
00010000
00000100
00000000
00000000
00000000
00000000
00000000
00000000
00000000
,  // measure 40
00011000
00001000
00010000
00100000
00000000
01000000
10000000
00100000
,  // measure 41
00010000
00010000
00001000
00000010
00000000
00000001
00000100
00001000
,  // measure 42
00100000
01000000
10000000
10010000
00000000
00001000
00000100
00000010
,  // measure 43
00001000
00010000
01000000
10000000
00000000
11000000
00100000
00010000
,  // measure 44
00001000
00000010
00000001
00000001
00000000
00000110
00001000
00010000
,  // measure 45
00100000
01000000
01000000
10000000
00100000
00010000
00001000
01000000
,  // measure 46
00100000
00100000
00010000
00001000
00000100
00000010
00000001
00001000
,  // measure 47
00001100
00000000
00000000
00000000
,  // measure 48
10010000
00000000
10000000
00000000
01000000
00000000
00100000
00000000
00010000
00001000
00010000
00000100
00010000
00001000
00010000
00000000
,  // measure 49
00100000
00000000
01000000
00000000
10000000
00000000
00010000
00000000
01000000
00001000
01000000
00010000
01000000
00001000
01000000
00000000
,  // measure 50
00001000
00000000
00010000
00000000
00000100
00000000
00000010
00000000
00000001
00001000
00000001
00000100
00000001
00001000
00000001
00000000
,  // measure 51
00010000
00000100
00010000
00000000
00001000
00000000
01000000
00000000
00100000
00010000
00100000
00001000
00100000
00010000
00100000
00000000
,  // measure 52
01000000
00000000
00001000
00000000
00010000
00000000
00000100
00000000
00000010
00000001
00000010
00000100
00000010
00000001
00000010
00000000
,  // measure 53
00001100
00000000
00000000
00000000
00011000
00000000
00000000
00000000
00010000
10000000
00010000
00000000
10000000
01000000
10000000
00000000
,  // measure 54
00100000
00000000
01000000
00000000
00010000
00100000
00010000
00000000
00100000
00000000
00001000
00000000
00010000
00000000
00000100
00000000
,  // measure 55
00000010
00000001
00000010
00000000
00000100
00000000
00001000
00000000
00010000
01000000
00010000
01000000
00010000
00000000
00001000
00000000
,  // measure 56
00001100
00000000
00000000
00000000
,  // measure 57
00000000
00000000
00022000
00000000
00000000
00000000
00030000
00000000
00000000
00203000
00000000
00000000
00000000
00000000
00000000
00000000
,  // measure 58
02300000
00000000
00000000
00000000
00000000
03000000
10000000
00010000
10000000
00000000
00100000
00000000
00010000
00000000
00001000
00000000
,  // measure 59
00000100
00000000
00000010
00000000
00000001
00000000
00000100
00000000
00001000
00000000
00010000
00000000
00100000
00000000
01000000
10000000
,  // measure 60
22000000
00000000
00000000
00000000
33000000
00000000
10000000
00010000
10000000
00000000
01000000
00000000
00100000
00000000
00010000
00000000
,  // measure 61
00001000
00000000
00000100
00000000
00000010
00000000
00000001
00000000
00000100
00000000
00001000
00000000
00010000
00000000
00100000
01000000
,  // measure 62
02200000
00000000
00000000
00000000
03300000
00000000
01000000
10000000
00010000
00000000
10000000
00000000
01000000
00000000
00100000
00000000
,  // measure 63
00010000
00000000
00001000
00000000
00000100
00000000
00000010
00000000
00000001
00000000
00000100
00000000
00000010
00000000
00010000
00001000
,  // measure 64
00010000
00001000
00100000
01000000
10000000
00100000
01000000
00010000
,  // measure 65
00011000
00000110
00000011
00011000
,  // measure 66
00110000
01000000
10000000
01000000
00010000
01000000
10000000
01000000
,  // measure 67
00010000
01000000
10000000
01000000
00010000
01000000
10000000
01000000
,  // measure 68
00100000
00010000
00100000
01000000
00100000
10000000
00100000
01000000
,  // measure 69
00100000
00010000
00100000
01000000
00100000
10000000
00100000
00010000
,  // measure 70
00001000
00000100
00001000
00000010
00001000
00000001
00001000
00000010
,  // measure 71
00001000
00000100
00001000
00000010
00001000
00000001
00001000
00000010
,  // measure 72
00010000
00001000
00010000
00000000
00000100
00000000
00000100
00000000
00100000
00001000
00100000
00001000
00100000
00000000
00000000
00000000
,  // measure 73
00100000
00000000
00100000
00000000
01000000
00000000
01000000
00000000
00001000
00010000
00001000
00100000
00001000
00010000
00000000
00000000
,  // measure 74
11000000
11000000
10000000
00100000
01000000
00010000
10000000
01000000
,  // measure 75
00110000
00110000
00010000
00001000
00000100
00000010
00000001
00000100
,  // measure 76
00011000
00011000
00010000
00100000
01000000
10000000
00100000
00010000
,  // measure 77
00001100
00001100
00000100
00000010
00000001
00000100
00001000
00010000
,  // measure 78
01100000
00000000
01100000
00000000
00100000
00000000
10000000
00000000
00010000
00000000
00100000
00000000
00001000
00010000
00001000
00000000
,  // measure 79
00010100
00000000
00010100
00000000
00000100
00000000
00000010
00000000
00000001
00000000
00001000
00000000
00000100
00010000
00000100
00000000
,  // measure 80
00011000
00000000
00011000
00000000
00100000
00000000
01000000
00000000
10000000
00000000
00010000
00000000
01000000
00001000
01000000
00000000
,  // measure 81
00011000
00000000
00011000
00000000
00010000
00000000
00000100
00000000
01000000
00001000
01000000
00010000
01000000
00001000
01000000
00000000
,  // measure 82
00110000
00000000
00010000
00000000
00001000
00000000
00000100
00000000
00000010
00000001
00000010
00000000
00000100
00000000
00001000
00000000
,  // measure 83
00010000
00000000
00100000
00000000
01000000
00000000
10000000
00000000
00010000
01000000
00001000
00000000
00010000
00000000
00000100
00000000
,  // measure 84
00001100
00000000
00000010
00000000
00000001
00000000
00001000
00000000
00010000
00000100
00010000
00000000
00001000
00000000
00100000
00000000
,  // measure 85
01000000
00000000
10000000
00000000
00100000
00000000
00010000
00000000
00001000
00000100
00001000
00000000
00010000
00000000
01000000
00000000
,  // measure 86
01100000
00000000
10000000
00000000
01000000
00000000
00010000
00000000
00001000
00000010
00001000
00000000
00000100
00000000
00000010
00000000
,  // measure 87
00000001
00000000
00000100
00000000
00001000
00000000
00010000
00000000
00100000
01000000
00100000
00000000
01000000
00000000
10000000
00000000
,  // measure 88
10010000
00000000
10010000
00000000
00001000
00000000
00010000
00000000
00000010
00001000
00000010
00000000
00010000
00000100
00010000
00001000
,  // measure 89
00010000
00001000
00100000
00010000
00100000
01000000
00100000
00000000
11000000
00000000
10010000
00000000
01010000
00000000
02002000
00000000
,  // measure 90
00000000
00000000
00000000
00000000
,  // measure 91
03003000
00000000
00000000
00000000
;

//---------------dance-single - ----------------
#NOTES:
     dance-single:
     :
     Medium:
     8:
     0.608,0.701,0.199,0.095,0.095,458.000,23.000,11.000,0.000,0.000:  // measure 1
0000
0000
0000
0000
,  // measure 2
0000
0000
0000
0000
,  // measure 3
0000
0000
0000
0000
,  // measure 4
0000
0000
0000
0000
,  // measure 5
0100
0100
0010
0010
,  // measure 6
1000
1000
0001
0001
,  // measure 7
0010
0010
0100
0100
,  // measure 8
1000
1000
0010
0010
,  // measure 9
0001
0100
0001
0010
0100
1000
0100
0010
,  // measure 10
0001
1000
0010
1000
0100
1000
0001
0010
,  // measure 11
0001
0100
0001
0100
0010
1000
0010
1000
,  // measure 12
0100
1000
0100
1000
0001
0100
0001
0100
,  // measure 13
0010
1000
0010
1000
0100
1000
0100
1000
,  // measure 14
0010
0100
0010
0100
0001
1000
0001
1000
,  // measure 15
0200
0000
0000
0000
,  // measure 16
0000
0000
0000
0300
,  // measure 17
0100
0000
0001
0010
0000
0001
0010
0000
0100
1000
0000
0100
1000
0000
0010
0000
,  // measure 18
0000
0110
0000
0000
0000
0000
0000
0000
,  // measure 19
1100
0000
0100
0010
0000
0001
1000
0000
,  // measure 20
0010
0000
0100
0001
0000
1000
0100
0000
,  // measure 21
0010
0000
1000
0001
0000
0001
0010
0000
,  // measure 22
0100
0000
1000
0010
0000
1000
0100
0000
,  // measure 23
0010
0000
0001
1000
0000
0100
1000
0000
,  // measure 24
0010
0000
0100
0001
0000
0001
1000
0000
,  // measure 25
0010
0000
0100
0100
0000
0001
1000
0000
,  // measure 26
0100
0000
0010
0001
0000
0010
0100
0000
,  // measure 27
1000
0010
0000
0000
0010
0100
0000
0000
0100
0001
0000
0000
0001
1000
0000
0000
,  // measure 28
1000
0100
0000
0000
0100
0010
0000
0000
0010
0001
0000
0000
0001
1000
0000
0000
,  // measure 29
1000
0100
1000
0100
1000
0100
1000
0000
,  // measure 30
0001
0100
0001
0100
0001
0100
0001
0000
,  // measure 31
1001
0000
0000
1010
0000
0000
0110
0000
,  // measure 32
0000
0101
0000
0000
1001
0000
1100
0000
,  // measure 33
0010
0000
0001
1000
0000
0100
1000
0000
,  // measure 34
0010
0000
0100
0001
0000
0001
1000
0000
,  // measure 35
0100
0000
0010
1000
0000
1000
0100
0000
,  // measure 36
0010
0000
0001
0100
0000
0010
1000
0000
,  // measure 37
2000
0000
3002
0000
,  // measure 38
0023
0000
0230
0000
,  // measure 39
2300
0001
3001
0000
,  // measure 40
0100
0000
0001
1000
0000
0100
1000
0100
,  // measure 41
0010
0000
0001
0100
0000
0010
1000
0010
,  // measure 42
0100
0000
0001
0010
0000
0100
1000
0100
,  // measure 43
1000
0000
0001
0100
0000
0010
1000
0010
,  // measure 44
0100
0000
0001
0010
0000
0100
1000
0100
,  // measure 45
0010
0000
0001
0100
0000
1000
0100
1000
,  // measure 46
0010
0000
0100
0001
0000
1000
0100
1000
,  // measure 47
1001
0000
0000
0000
,  // measure 48
0100
0100
0100
0000
1001
0000
0110
0000
,  // measure 49
0001
0001
0001
0000
0011
0000
1100
0000
,  // measure 50
0010
0010
0010
0000
0110
0000
0101
0000
,  // measure 51
1001
1100
0110
0011
,  // measure 52
1000
0000
0000
1000
0001
0000
0000
0000
0010
0000
0000
0000
0100
0000
0000
0000
,  // measure 53
1001
0000
0000
0000
1001
0000
0000
0000
0010
0000
0000
0010
0100
0000
0000
0000
,  // measure 54
1000
0000
0000
1000
0001
0000
0000
0000
0100
0000
0000
0000
0010
0000
0000
0000
,  // measure 55
0001
0000
0000
0001
0100
0000
0000
0000
0010
0000
0000
0000
1000
0000
0000
0000
,  // measure 56
1001
0000
0000
0000
,  // measure 57
0000
0000
0000
0000
,  // measure 58
2000
0000
0000
3001
0100
0010
1000
0100
,  // measure 59
0010
0001
0100
0010
1000
0100
0010
0001
,  // measure 60
0200
0000
0000
0310
1000
0001
0010
0100
,  // measure 61
1000
0010
0100
0001
1000
0100
0010
0001
,  // measure 62
0200
0000
0000
0310
1000
1000
0010
0100
,  // measure 63
0001
1000
0100
0010
0001
0100
0010
1000
,  // measure 64
0001
0000
0010
0100
0010
0000
0100
0000
1000
0000
0010
0000
0100
0000
0001
0000
,  // measure 65
0010
0100
1000
0010
,  // measure 66
0100
0000
0000
0100
0000
0000
0001
0000
,  // measure 67
0000
0001
0000
0000
0010
0100
1000
0100
,  // measure 68
1000
0000
0000
0010
0000
0000
0100
0000
,  // measure 69
0000
0001
0000
0000
0010
0100
0010
0100
,  // measure 70
1000
0000
0000
0001
0000
0000
0010
0000
,  // measure 71
0000
0100
0000
0000
1000
0001
1000
0001
,  // measure 72
0010
0000
0000
0100
0000
0000
1000
0000
,  // measure 73
0000
0010
0000
0000
0100
0001
0100
0000
,  // measure 74
0001
0010
0100
1000
0000
0010
0010
0000
,  // measure 75
0100
0001
1000
0100
0000
0010
0010
0000
,  // measure 76
0001
0100
1000
0100
0000
0001
0001
0000
,  // measure 77
1000
0100
0010
0001
0000
0100
0100
0000
,  // measure 78
0010
1000
0001
0010
0000
0100
0100
0000
,  // measure 79
1000
0100
0010
0001
0000
0100
0100
0000
,  // measure 80
0010
1000
0010
0001
0000
1000
1000
0000
,  // measure 81
0010
0100
0001
0010
0000
0100
0100
0000
,  // measure 82
1000
0100
1000
0001
0100
0001
0100
0010
,  // measure 83
1000
0100
1000
0001
0100
0001
0001
0000
,  // measure 84
0010
0100
0010
0100
1000
0001
1000
0001
,  // measure 85
0100
0010
0100
0100
0001
0010
0001
0000
,  // measure 86
1000
0100
1000
0010
0100
0001
1000
0100
,  // measure 87
0010
0001
0010
0100
1000
0001
1000
0000
,  // measure 88
0010
0000
0000
0010
0100
0000
0000
0100
0001
0000
0000
0001
1000
0000
0000
1000
,  // measure 89
0100
0000
0010
0001
0010
0000
0100
0000
1000
0000
0010
0000
0100
0000
2002
0000
,  // measure 90
0000
0000
0000
0000
,  // measure 91
3003
0000
0000
0000
;
